The OpenNET Project / Index page

[ новости/++ | форум | wiki | теги | ]

форумы  помощь  поиск  регистрация  майллист  вход/выход  слежка  RSS
"avconv - Invalid pixel aspect ratio 320/319, limit is 255/255"
Вариант для распечатки  
Пред. тема | След. тема 
Форум Открытые системы на рабочей станции (Видео / Linux)
Изначальное сообщение [ Отслеживать ]

"avconv - Invalid pixel aspect ratio 320/319, limit is 255/255"  +/
Сообщение от sasku (ok) on 22-Окт-12, 14:06 
пытаюсь перекодировать видео:
avconv -y -i aa.flv aa.avi

получаю:


avconv version 0.8.3-6:0.8.3-7, Copyright (c) 2000-2012 the Libav developers
  built on Aug 25 2012 11:19:52 with gcc 4.7.1
[flv @ 0xac4300] Estimating duration from bitrate, this may be inaccurate
Input #0, flv, from 'aa.flv':
  Metadata:
    creator         : STB
    metadatacreator : Yet Another Metadata Injector for FLV - Version 1.8
    hasKeyframes    : true
    hasVideo        : true
    hasAudio        : true
    hasMetadata     : true
    canSeekToEnd    : true
    datasize        : 278258877
    videosize       : 238760506
    audiosize       : 38900127
    lasttimestamp   : 2363
    lastkeyframetimestamp: 2363
    lastkeyframelocation: 278270953
  Duration: 00:39:23.36, start: 0.055000, bitrate: 934 kb/s
    Stream #0.0: Video: h264 (High), yuv420p, 638x480 [PAR 320:319 DAR 4:3], 806 kb/s, 25 tbr, 1k tbn, 50 tbc
    Stream #0.1: Audio: mp3, 44100 Hz, stereo, s16, 128 kb/s
[buffer @ 0xac8740] w:638 h:480 pixfmt:yuv420p
[mpeg4 @ 0xacc360] Invalid pixel aspect ratio 320/319, limit is 255/255
Output #0, avi, to 'aa.avi':
  Metadata:
    creator         : STB
    metadatacreator : Yet Another Metadata Injector for FLV - Version 1.8
    hasKeyframes    : true
    hasVideo        : true
    hasAudio        : true
    hasMetadata     : true
    canSeekToEnd    : true
    datasize        : 278258877
    videosize       : 238760506
    audiosize       : 38900127
    lasttimestamp   : 2363
    lastkeyframetimestamp: 2363
    lastkeyframelocation: 278270953
    Stream #0.0: Video: mpeg4, yuv420p, 638x480 [PAR 320:319 DAR 4:3], q=2-31, 200 kb/s, 90k tbn, 25 tbc
    Stream #0.1: Audio: [0][0][0][0] / 0x0000, 44100 Hz, stereo, s16, 200 kb/s
Stream mapping:
  Stream #0:0 -> #0:0 (h264 -> mpeg4)
  Stream #0:1 -> #0:1 (mp3 -> libmp3lame)
Error while opening encoder for output stream #0:0 - maybe incorrect parameters such as bit_rate, rate, width or height

что означает "Invalid pixel aspect ratio 320/319, limit is 255/255" и как от него избавиться ?

Ответить | Правка | Cообщить модератору

Оглавление

Сообщения по теме [Сортировка по времени | RSS]


1. "avconv - Invalid pixel aspect ratio 320/319, limit is 255/255"  +/
Сообщение от sasku (ok) on 23-Окт-12, 09:11 

> что означает "Invalid pixel aspect ratio 320/319, limit is 255/255" и как
> от него избавиться ?

то-же самое получаю и от ffmpeg
почитал на буржуйских форумах, оказывается такая проблема появилась в последних версиях ffmpeg (у меня стояла 0.8.3-7).
откатился на старую (из стабильного релиза дебиана) - 0.5.9-1
и все заработало !

Ответить | Правка | ^ к родителю #0 | Наверх | Cообщить модератору

2. "avconv - Invalid pixel aspect ratio 320/319, limit is 255/255"  +/
Сообщение от abeeha (ok) on 16-Авг-13, 13:55 

Nice surprise about this shorter form. Can you tell us what it is you are talking/writing about?Has any info. about this shorter form been posted before (and i just missed

Ответить | Правка | ^ к родителю #1 | Наверх | Cообщить модератору

3. "avconv - Invalid pixel aspect ratio 320/319, limit is 255/255"  +/
Сообщение от Пр0х0жий (??) on 08-Сен-13, 23:36 
>> что означает "Invalid pixel aspect ratio 320/319, limit is 255/255" и как
>> от него избавиться ?
> то-же самое получаю и от ffmpeg

Спасибо libavcodec53 ?
https://github.com/libav/libav/blob/master/libavcodec/mpegvi...
Погрепать Invalid pixel

> откатился на старую (из стабильного релиза дебиана) - 0.5.9-1

И прилетело libavcodec52 ?

> и все заработало !

Ответить | Правка | ^ к родителю #1 | Наверх | Cообщить модератору

Архив | Удалить

Рекомендовать для помещения в FAQ | Индекс форумов | Темы | Пред. тема | След. тема


  Закладки на сайте
  Проследить за страницей
Created 1996-2018 by Maxim Chirkov  
ДобавитьПоддержатьВебмастеруГИД  
Hosting by Ihor